Audiophile Indonesia

Author Topic: [Ask] About Ripping Music  (Read 36954 times)

Offline Djuki75

  • Newbie
  • Posts: 4
  • Gender: Male
    • Download MP3 Lagu Indonesia
Re: [Ask] About Ripping Music
« Reply #165 on: Feb 09, 2016, 13:35:48 »
kl rip dari cd jadi file cue gitu gimana ya?
 :P
Saya pakai CUETools om. Cuman gak gitu oke sih wkwkwkw daripada gak ada :p
Mungkin bole coba dijajal kwkwk
Jual lagu band Anda dan download mp3 band indie fav Anda di Djukebox

Offline choli

  • Newbie
  • Posts: 15
Re: [Ask] About Ripping Music
« Reply #166 on: Sep 05, 2020, 16:29:28 »
Yang diakui ama 'dunia' itu: EAC 1.5 buat windows dan XLD buat Mac...

Offline choli

  • Newbie
  • Posts: 15
Re: [Ask] About Ripping Music
« Reply #167 on: Nov 12, 2020, 17:21:23 »
EAC 1.6 sudah keluar..
Code: [Select]
http://www.exactaudiocopy.de/en/index.php/resources/download/
Quote
Changelog:

- Standard setup now using gnudb.org instead of freedb.org

- Several small problems with secondary encoder

- Fixed problems with the Musicbrainz plugin

- Several smaller bugs removed (e.g. replacing spaces by underscores, etc.)

Belom ane coba.. Jadi ngga tau gimana hasil log-nya..

Offline choli

  • Newbie
  • Posts: 15
Re: [Ask] About Ripping Music
« Reply #168 on: Nov 18, 2020, 10:42:08 »
Contoh 100% .log yang ane buat dengan menggunakan EAC 1.6...


Code: [Select]
Exact Audio Copy V1.6 from 23. October 2020

EAC extraction logfile from 18. November 2020, 10:24

Various Artists / Korean Drama Hits

Used drive  : ASUS    DRW-24D5MT   Adapter: 1  ID: 0

Read mode               : Secure
Utilize accurate stream : Yes
Defeat audio cache      : Yes
Make use of C2 pointers : No

Read offset correction                      : 6
Overread into Lead-In and Lead-Out          : No
Fill up missing offset samples with silence : Yes
Delete leading and trailing silent blocks   : No
Null samples used in CRC calculations       : Yes
Used interface                              : Native Win32 interface for Win NT & 2000
Gap handling                                : Appended to previous track

Used output format              : User Defined Encoder
Selected bitrate                : 1024 kBit/s
Quality                         : High
Add ID3 tag                     : No
Command line compressor         : C:\Program Files (x86)\Exact Audio Copy\Flac\flac.exe
Additional command line options : -8 -e -p -V -T "ARTIST=%artist%" -T "TITLE=%title%" -T "ALBUM=%albumtitle%" -T "DATE=%year%" -T "TRACKNUMBER=%tracknr%" -T "GENRE=%genre%" -T "PERFORMER=%albuminterpret%" -T "COMPOSER=%composer%" %haslyrics%--tag-from-file=LYRICS="%lyricsfile%"%haslyrics% -T "ALBUMARTIST=%albumartist%" -T "DISCNUMBER=%cdnumber%" -T "TOTALDISCS=%totalcds%" -T "TOTALTRACKS=%numtracks%" -T "COMMENT=EAC v1.6, Secure Mode, Test & Copy, AccurateRip, FLAC -8" --picture="%coverfile%" %source% -o %dest%


TOC of the extracted CD

     Track |   Start  |  Length  | Start sector | End sector
    ---------------------------------------------------------
        1  |  0:00.00 |  4:48.53 |         0    |    21652   
        2  |  4:48.53 |  4:36.35 |     21653    |    42387   
        3  |  9:25.13 |  4:04.73 |     42388    |    60760   
        4  | 13:30.11 |  3:11.22 |     60761    |    75107   
        5  | 16:41.33 |  4:03.28 |     75108    |    93360   
        6  | 20:44.61 |  4:39.09 |     93361    |   114294   
        7  | 25:23.70 |  4:23.19 |    114295    |   134038   
        8  | 29:47.14 |  5:12.08 |    134039    |   157446   
        9  | 34:59.22 |  3:24.00 |    157447    |   172746   
       10  | 38:23.22 |  4:35.74 |    172747    |   193445   
       11  | 42:59.21 |  4:32.69 |    193446    |   213914   
       12  | 47:32.15 |  4:49.66 |    213915    |   235655   
       13  | 52:22.06 |  3:59.46 |    235656    |   253626   
       14  | 56:21.52 |  5:15.51 |    253627    |   277302   
       15  | 61:37.28 |  4:04.55 |    277303    |   295657   
       16  | 65:42.08 |  3:48.29 |    295658    |   312786   
       17  | 69:30.37 |  3:49.46 |    312787    |   330007   
       18  | 73:20.08 |  4:11.17 |    330008    |   348849   


Track  1

     Filename E:\EAC Rips\VA - Korean Drama Hits (2007) [FLAC-CD] {ID,WMI,5051442526622}\01 - Shin Sheung Hun - I Believe (My Sassy Girl).wav

     Pre-gap length  0:00:02.00

     Peak level 100.0 %
     Extraction speed 4.8 X
     Track quality 100.0 %
     Test CRC F2A93882
     Copy CRC F2A93882
     Cannot be verified as accurate (confidence 2)  [00239FB6], AccurateRip returned [470A9F47]  (AR v2)
     Copy OK

Track  2

     Filename E:\EAC Rips\VA - Korean Drama Hits (2007) [FLAC-CD] {ID,WMI,5051442526622}\02 - J J's - Perhaps Love (Princess Hours).wav

     Pre-gap length  0:00:02.00

     Peak level 100.0 %
     Extraction speed 5.3 X
     Track quality 100.0 %
     Test CRC E0FDAF26
     Copy CRC E0FDAF26
     Cannot be verified as accurate (confidence 2)  [E81CA597], AccurateRip returned [49344FC4]  (AR v2)
     Copy OK

Track  3

     Filename E:\EAC Rips\VA - Korean Drama Hits (2007) [FLAC-CD] {ID,WMI,5051442526622}\03 - Mario & Nesty - Never Say Good Bye (My Girl).wav

     Pre-gap length  0:00:02.00

     Peak level 100.0 %
     Extraction speed 5.6 X
     Track quality 100.0 %
     Test CRC 89FC9A02
     Copy CRC 89FC9A02
     Cannot be verified as accurate (confidence 2)  [E6919CFE], AccurateRip returned [6FA8ACEB]  (AR v2)
     Copy OK

Track  4

     Filename E:\EAC Rips\VA - Korean Drama Hits (2007) [FLAC-CD] {ID,WMI,5051442526622}\04 - The Girls - Maria (200 Pounds Beauty).wav

     Pre-gap length  0:00:02.00

     Peak level 100.0 %
     Extraction speed 5.7 X
     Track quality 100.0 %
     Test CRC 19618E0D
     Copy CRC 19618E0D
     Cannot be verified as accurate (confidence 2)  [FA982F08], AccurateRip returned [5487102B]  (AR v2)
     Copy OK

Track  5

     Filename E:\EAC Rips\VA - Korean Drama Hits (2007) [FLAC-CD] {ID,WMI,5051442526622}\05 - Star - I Think I (Full House).wav

     Pre-gap length  0:00:02.00

     Peak level 99.1 %
     Extraction speed 5.2 X
     Track quality 99.9 %
     Test CRC 84327499
     Copy CRC 84327499
     Cannot be verified as accurate (confidence 2)  [4223D2C4], AccurateRip returned [86FA47AE]  (AR v2)
     Copy OK

Track  6

     Filename E:\EAC Rips\VA - Korean Drama Hits (2007) [FLAC-CD] {ID,WMI,5051442526622}\06 - Cho Sung Hwan - Prayer (Autumn in My Heart).wav

     Pre-gap length  0:00:02.00

     Peak level 100.0 %
     Extraction speed 6.6 X
     Track quality 100.0 %
     Test CRC 85300B41
     Copy CRC 85300B41
     Cannot be verified as accurate (confidence 2)  [1BA4959E], AccurateRip returned [BB29B185]  (AR v2)
     Copy OK

Track  7

     Filename E:\EAC Rips\VA - Korean Drama Hits (2007) [FLAC-CD] {ID,WMI,5051442526622}\07 - Baek Ji Yong - Is It Impossible (It Happened in Bali).wav

     Pre-gap length  0:00:02.00

     Peak level 100.0 %
     Extraction speed 5.8 X
     Track quality 99.9 %
     Test CRC A034026E
     Copy CRC A034026E
     Cannot be verified as accurate (confidence 2)  [BE60903B], AccurateRip returned [10557AA9]  (AR v2)
     Copy OK

Track  8

     Filename E:\EAC Rips\VA - Korean Drama Hits (2007) [FLAC-CD] {ID,WMI,5051442526622}\08 - Jo Sung Mo - Only You (Lovers in Paris).wav

     Pre-gap length  0:00:02.00

     Peak level 100.0 %
     Extraction speed 7.3 X
     Track quality 100.0 %
     Test CRC 8C5B1925
     Copy CRC 8C5B1925
     Cannot be verified as accurate (confidence 2)  [DDBAF50B], AccurateRip returned [FC1F0A50]  (AR v2)
     Copy OK

Track  9

     Filename E:\EAC Rips\VA - Korean Drama Hits (2007) [FLAC-CD] {ID,WMI,5051442526622}\09 - Rain - With You (I'm a Cyborg but That's OK).wav

     Pre-gap length  0:00:02.00

     Peak level 100.0 %
     Extraction speed 7.3 X
     Track quality 100.0 %
     Test CRC 5DDBF409
     Copy CRC 5DDBF409
     Cannot be verified as accurate (confidence 2)  [8B1E8641], AccurateRip returned [BCA03E0E]  (AR v2)
     Copy OK

Track 10

     Filename E:\EAC Rips\VA - Korean Drama Hits (2007) [FLAC-CD] {ID,WMI,5051442526622}\10 - Clazziquai feat. Lee Seung - Be My Love (My Name Is Kim Samsoon).wav

     Pre-gap length  0:00:02.00

     Peak level 100.0 %
     Extraction speed 7.8 X
     Track quality 100.0 %
     Test CRC EE6AB468
     Copy CRC EE6AB468
     Cannot be verified as accurate (confidence 2)  [427E30D6], AccurateRip returned [55E3BC66]  (AR v2)
     Copy OK

Track 11

     Filename E:\EAC Rips\VA - Korean Drama Hits (2007) [FLAC-CD] {ID,WMI,5051442526622}\11 - Yim Jae Hwan - From the Star Til Now (Winter Love Story).wav

     Pre-gap length  0:00:02.00

     Peak level 100.0 %
     Extraction speed 7.9 X
     Track quality 100.0 %
     Test CRC D2CC1A6F
     Copy CRC D2CC1A6F
     Cannot be verified as accurate (confidence 2)  [F5A1A8A7], AccurateRip returned [EFD972E1]  (AR v2)
     Copy OK

Track 12

     Filename E:\EAC Rips\VA - Korean Drama Hits (2007) [FLAC-CD] {ID,WMI,5051442526622}\12 - Just - Green Rose (Green Rose).wav

     Pre-gap length  0:00:02.00

     Peak level 100.0 %
     Extraction speed 8.2 X
     Track quality 100.0 %
     Test CRC 37A6D38B
     Copy CRC 37A6D38B
     Cannot be verified as accurate (confidence 2)  [1D533321], AccurateRip returned [2DF283E6]  (AR v2)
     Copy OK

Track 13

     Filename E:\EAC Rips\VA - Korean Drama Hits (2007) [FLAC-CD] {ID,WMI,5051442526622}\13 - Sung Min Han - More Than Love (The Classic).wav

     Pre-gap length  0:00:02.00

     Peak level 100.0 %
     Extraction speed 8.2 X
     Track quality 100.0 %
     Test CRC 4BF48A07
     Copy CRC 4BF48A07
     Cannot be verified as accurate (confidence 1)  [E057A460], AccurateRip returned [0BEB010C]  (AR v2)
     Copy OK

Track 14

     Filename E:\EAC Rips\VA - Korean Drama Hits (2007) [FLAC-CD] {ID,WMI,5051442526622}\14 - Lee So Eun - Snowflower (Sorry, I Love You).wav

     Pre-gap length  0:00:02.00

     Peak level 100.0 %
     Extraction speed 8.8 X
     Track quality 100.0 %
     Test CRC A06CC282
     Copy CRC A06CC282
     Cannot be verified as accurate (confidence 2)  [F6D9EB4C], AccurateRip returned [C3BC5B98]  (AR v2)
     Copy OK

Track 15

     Filename E:\EAC Rips\VA - Korean Drama Hits (2007) [FLAC-CD] {ID,WMI,5051442526622}\15 - Bum Soo Kim - I Miss You (Stairway to Heaven).wav

     Pre-gap length  0:00:02.00

     Peak level 99.9 %
     Extraction speed 8.8 X
     Track quality 100.0 %
     Test CRC 454EFD99
     Copy CRC 454EFD99
     Cannot be verified as accurate (confidence 1)  [B6A1517D], AccurateRip returned [833AF355]  (AR v2)
     Copy OK

Track 16

     Filename E:\EAC Rips\VA - Korean Drama Hits (2007) [FLAC-CD] {ID,WMI,5051442526622}\16 - Alex & Clazziquai - She Is (My Name Is Kim Samsoon).wav

     Pre-gap length  0:00:02.00

     Peak level 99.8 %
     Extraction speed 7.3 X
     Track quality 99.9 %
     Test CRC 62CB52FC
     Copy CRC 62CB52FC
     Cannot be verified as accurate (confidence 1)  [DDE7EA73], AccurateRip returned [E60C2EA5]  (AR v2)
     Copy OK

Track 17

     Filename E:\EAC Rips\VA - Korean Drama Hits (2007) [FLAC-CD] {ID,WMI,5051442526622}\17 - Jun Mi Ae - Maybe (Summer Love Story).wav

     Pre-gap length  0:00:02.00

     Peak level 100.0 %
     Extraction speed 9.1 X
     Track quality 100.0 %
     Test CRC ABD2CC10
     Copy CRC ABD2CC10
     Cannot be verified as accurate (confidence 1)  [02A66083], AccurateRip returned [A50E89DD]  (AR v2)
     Copy OK

Track 18

     Filename E:\EAC Rips\VA - Korean Drama Hits (2007) [FLAC-CD] {ID,WMI,5051442526622}\18 - Sang Kyu Lee - Like Me (Fox, Doing).wav

     Pre-gap length  0:00:02.00

     Peak level 100.0 %
     Extraction speed 9.2 X
     Track quality 100.0 %
     Test CRC 1DAF5F25
     Copy CRC 1DAF5F25
     Cannot be verified as accurate (confidence 1)  [EDC9986A], AccurateRip returned [9BFE932A]  (AR v2)
     Copy OK


No tracks could be verified as accurate
You may have a different pressing from the one(s) in the database

No errors occurred

End of status report

---- CUETools DB Plugin V2.1.6

[CTDB TOCID: Sj4X0RuMBtL930Ysw72FzhRAvho-] found
Submit result: Sj4X0RuMBtL930Ysw72FzhRAvho- has been confirmed
Track | CTDB Status
  1   | (2/2) Accurately ripped
  2   | (2/2) Accurately ripped
  3   | (2/2) Accurately ripped
  4   | (2/2) Accurately ripped
  5   | (2/2) Accurately ripped
  6   | (2/2) Accurately ripped
  7   | (2/2) Accurately ripped
  8   | (2/2) Accurately ripped
  9   | (2/2) Accurately ripped
 10   | (2/2) Accurately ripped
 11   | (2/2) Accurately ripped
 12   | (2/2) Accurately ripped
 13   | (1/2) Accurately ripped
 14   | (2/2) Accurately ripped
 15   | (1/2) Accurately ripped
 16   | (1/2) Accurately ripped
 17   | (1/2) Accurately ripped
 18   | (1/2) Accurately ripped


==== Log checksum 15F22DA4C0402D519697E480F966306C931303544EC4BBE80B40AB79F8153DFC ====

« Last Edit: Nov 18, 2020, 10:43:46 by choli »